<?xml version="1.0" standalone="no"?> 
<!DOCTYPE svg PUBLIC "-//W3C//DTD SVG 1.1//EN" "http://www.w3.org/Graphics/SVG/1.1/DTD/svg11.dtd" >
<svg xmlns="http://www.w3.org/2000/svg">
<defs>
  <font id="new-cc-icons" horiz-adv-x="25">
    <font-face font-family="new-cc-icons"
      units-per-em="512" ascent="512"
      descent="0" />
    <missing-glyph horiz-adv-x="0" />
    <glyph glyph-name="add-image"
      unicode="&#xF101;"
      horiz-adv-x="512" d=" M48 405.3333333333334C48 437.7339733333333 74.2660266666667 464 106.6666666666667 464H405.3333333333333C437.7344 464 464 437.7339733333333 464 405.3333333333334V106.6666666666667C464 74.2656000000001 437.7344 48 405.3333333333333 48H106.6666666666667C74.2660266666667 48 48 74.2656000000001 48 106.6666666666667V405.3333333333334zM106.6666666666667 432C91.9389866666667 432 80 420.0610133333334 80 405.3333333333334V106.6666666666667C80 91.9381333333333 91.9389866666667 80 106.6666666666667 80H405.3333333333333C420.0618666666667 80 432 91.9381333333333 432 106.6666666666667V405.3333333333334C432 420.0610133333334 420.0618666666667 432 405.3333333333333 432H106.6666666666667z M181.3333333333333 298.6666666666667C199.0065066666667 298.6666666666667 213.3333333333333 312.9934933333334 213.3333333333333 330.6666666666667C213.3333333333333 348.33984 199.0065066666667 362.6666666666667 181.3333333333333 362.6666666666667C163.66016 362.6666666666667 149.3333333333333 348.33984 149.3333333333333 330.6666666666667C149.3333333333333 312.9934933333334 163.66016 298.6666666666667 181.3333333333333 298.6666666666667z M330.0202666666667 309.9803733333333C336.2688 316.2286933333334 346.3978666666667 316.2286933333334 352.6464 309.9803733333333L459.3130666666667 203.3130666666667C465.5616 197.0645333333333 465.5616 186.9354666666667 459.3130666666667 180.6869333333334C453.0645333333333 174.4384 442.9354666666667 174.4384 436.6869333333333 180.6869333333334L341.3333333333333 276.0384L117.9803733333333 52.6869333333333C111.7320533333333 46.4384 101.60128 46.4384 95.35296 52.6869333333333C89.10464 58.9354666666667 89.10464 69.0645333333334 95.35296 75.3130666666667L330.0202666666667 309.9803733333333z" />
    <glyph glyph-name="add-shape"
      unicode="&#xF102;"
      horiz-adv-x="512" d=" M5.3333333333333 405.3333333333334C5.3333333333333 414.1698133333333 12.496768 421.3333333333334 21.3333333333333 421.3333333333334H213.3333333333333C222.1696 421.3333333333334 229.3333333333333 414.1698133333333 229.3333333333333 405.3333333333334V213.3333333333334C229.3333333333333 204.4970666666667 222.1696 197.3333333333334 213.3333333333333 197.3333333333334H21.3333333333333C12.496768 197.3333333333334 5.3333333333333 204.4970666666667 5.3333333333333 213.3333333333334V405.3333333333334zM37.3333333333333 389.3333333333334V229.3333333333334H197.3333333333333V389.3333333333334H37.3333333333333z M384 464C389.7173333333334 464 394.9994666666667 460.9504 397.8581333333333 456L508.7104 264C511.5669333333333 259.0506666666667 511.5669333333333 252.9514666666667 508.7104 248C505.8517333333333 243.0506666666667 500.5696 240 494.8522666666667 240H273.1477333333334C267.4325333333333 240 262.1504 243.0506666666667 259.2917333333333 248C256.4330666666667 252.9514666666667 256.4330666666667 259.0506666666667 259.2917333333333 264L370.144 456C373.0026666666667 460.9504 378.2848 464 384 464zM300.8618666666667 272H467.1402666666667L384 416.0002133333334L300.8618666666667 272z M133.3333333333333 181.3333333333334C133.3333333333333 254.9717333333334 193.0286933333333 314.6666666666667 266.6666666666667 314.6666666666667C340.3050666666667 314.6666666666667 400 254.9717333333334 400 181.3333333333334C400 107.6949333333334 340.3050666666667 48 266.6666666666667 48C193.0286933333333 48 133.3333333333333 107.6949333333334 133.3333333333333 181.3333333333334zM266.6666666666667 282.6666666666667C210.7016533333333 282.6666666666667 165.3333333333333 237.2992000000001 165.3333333333333 181.3333333333334C165.3333333333333 125.3674666666667 210.7016533333333 80 266.6666666666667 80C322.6325333333333 80 368 125.3674666666667 368 181.3333333333334C368 237.2992000000001 322.6325333333333 282.6666666666667 266.6666666666667 282.6666666666667z" />
    <glyph glyph-name="add-text"
      unicode="&#xF103;"
      horiz-adv-x="512" d=" M69.3333333333333 426.6666666666667C69.3333333333333 435.5031466666667 76.4968533333333 442.6666666666667 85.3333333333333 442.6666666666667H426.6666666666667C435.5029333333333 442.6666666666667 442.6666666666667 435.5031466666667 442.6666666666667 426.6666666666667V362.6666666666667C442.6666666666667 353.8301866666667 435.5029333333333 346.6666666666667 426.6666666666667 346.6666666666667C417.8304 346.6666666666667 410.6666666666667 353.8301866666667 410.6666666666667 362.6666666666667V410.6666666666667H101.3333333333333V362.6666666666667C101.3333333333333 353.8301866666667 94.1698133333333 346.6666666666667 85.3333333333333 346.6666666666667C76.4968533333333 346.6666666666667 69.3333333333333 353.8301866666667 69.3333333333333 362.6666666666667V426.6666666666667z M176 85.3333333333334C176 94.1696000000001 183.16352 101.3333333333334 192 101.3333333333334H320C328.8362666666667 101.3333333333334 336 94.1696000000001 336 85.3333333333334C336 76.4970666666667 328.8362666666667 69.3333333333334 320 69.3333333333334H192C183.16352 69.3333333333334 176 76.4970666666667 176 85.3333333333334z M256 442.6666666666667C264.8362666666667 442.6666666666667 272 435.5031466666667 272 426.6666666666667V85.3333333333334C272 76.4970666666667 264.8362666666667 69.3333333333334 256 69.3333333333334C247.1637333333334 69.3333333333334 240 76.4970666666667 240 85.3333333333334V426.6666666666667C240 435.5031466666667 247.1637333333334 442.6666666666667 256 442.6666666666667z" />
    <glyph glyph-name="back"
      unicode="&#xF104;"
      horiz-adv-x="512" d=" M331.3130666666667 395.3137066666667C325.0645333333333 401.5620266666667 314.9354666666667 401.5620266666667 308.6869333333333 395.3137066666667L180.6862933333334 267.3130666666667C174.4379733333333 261.0645333333333 174.4379733333333 250.9354666666667 180.6862933333334 244.6869333333334L308.6869333333333 116.6869333333334C314.9354666666667 110.4384 325.0645333333333 110.4384 331.3130666666667 116.6869333333334C337.5616 122.9354666666667 337.5616 133.0645333333334 331.3130666666667 139.3130666666667L214.6282666666667 256L331.3130666666667 372.6862933333333C337.5616 378.9346133333334 337.5616 389.0653866666667 331.3130666666667 395.3137066666667z" />
    <glyph glyph-name="bold"
      unicode="&#xF105;"
      horiz-adv-x="512" d=" M112 426.6666666666667C112 435.5031466666667 119.16352 442.6666666666667 128 442.6666666666667H298.6666666666667C325.5424 442.6666666666667 351.3173333333333 431.9908266666667 370.3189333333333 412.9873066666667C389.3248 393.9831466666667 400 368.2084266666667 400 341.3333333333334C400 314.4590933333334 389.3248 288.6848 370.3210666666667 269.6810666666667L370.3189333333333 388.6609066666667L298.6666666666667 426.6666666666667H112zM370.3210666666667 269.6810666666667C351.3173333333333 250.6773333333334 325.5424 240 298.6666666666667 240H128C119.16352 240 112 247.1637333333334 112 256V426.6666666666667H298.6666666666667L370.3189333333333 388.6609066666667L370.3210666666667 269.6810666666667zM144 410.6666666666667V272H298.6666666666667C317.056 272 334.6901333333333 279.3045333333333 347.6906666666667 292.3072C360.6933333333333 305.3081600000001 368 322.9444266666667 368 341.3333333333334C368 359.7220266666667 360.6954666666666 377.3568 347.6928000000001 390.35904C334.6901333333333 403.3610666666667 317.056 410.6666666666667 298.6666666666667 410.6666666666667H144z M112 85.3333333333334C112 94.1696000000001 112.00064 272 112.00064 272H312.8896C341.2565333333333 272 368.6933333333333 261.6106666666667 389.1093333333333 242.7626666666667C409.5701333333333 223.8762666666667 421.3333333333333 197.9733333333334 421.3333333333333 170.6666666666667C421.3333333333333 143.36 409.5722666666666 117.4570666666667 389.1093333333333 98.5706666666667L112 85.3333333333334zM144 240V101.3333333333334H312.8896C333.5594666666667 101.3333333333334 353.1477333333333 108.9237333333333 367.4026666666667 122.0842666666667C381.6170666666667 135.2021333333333 389.3333333333333 152.7104000000001 389.3333333333333 170.6666666666667C389.3333333333333 188.6229333333333 381.6170666666667 206.1290666666667 367.4048 219.2490666666667C353.1498666666667 232.4074666666667 333.5594666666667 240 312.8896 240H144zM389.1093333333333 98.5706666666667C368.6933333333333 79.7226666666667 341.2544 69.3333333333334 312.8896 69.3333333333334H128C119.16352 69.3333333333334 112 76.4970666666667 112 85.3333333333334" />
    <glyph glyph-name="caret"
      unicode="&#xF106;"
      horiz-adv-x="512" d=" M213.3333333333333 405.3333333333334C213.3333333333333 428.8970666666667 232.4352 448 256 448C279.5648 448 298.6666666666667 428.8970666666667 298.6666666666667 405.3333333333334C298.6666666666667 381.7696000000001 279.5648 362.6666666666667 256 362.6666666666667C232.4352 362.6666666666667 213.3333333333333 381.7696000000001 213.3333333333333 405.3333333333334z M213.3333333333333 256C213.3333333333333 279.5648 232.4352 298.6666666666667 256 298.6666666666667C279.5648 298.6666666666667 298.6666666666667 279.5648 298.6666666666667 256C298.6666666666667 232.4352 279.5648 213.3333333333334 256 213.3333333333334C232.4352 213.3333333333334 213.3333333333333 232.4352 213.3333333333333 256z M213.3333333333333 106.6666666666667C213.3333333333333 130.2314666666667 232.4352 149.3333333333334 256 149.3333333333334C279.5648 149.3333333333334 298.6666666666667 130.2314666666667 298.6666666666667 106.6666666666667C298.6666666666667 83.1018666666666 279.5648 64 256 64C232.4352 64 213.3333333333333 83.1018666666666 213.3333333333333 106.6666666666667z" />
    <glyph glyph-name="chevron-down"
      unicode="&#xF107;"
      horiz-adv-x="877.7142857142857" d=" M34.3530057142857 477.6469942857143C55.7760365714286 499.0700251428572 90.5098971428571 499.0700251428572 111.9327085714286 477.6469942857143L438.8571428571429 150.7225600000001L765.7837714285713 477.6469942857143C787.2073142857143 499.0700251428572 821.9355428571428 499.0700251428572 843.3590857142857 477.6469942857143C864.7826285714285 456.2239634285714 864.7826285714285 421.4901028571429 843.3590857142857 400.0672914285714L477.6469942857143 34.3530057142857C456.2241828571429 12.9301942857143 421.4901028571428 12.9301942857143 400.0672914285714 34.3530057142857L34.3530057142857 400.0672914285714C12.9299748571429 421.4901028571429 12.9299748571429 456.2239634285714 34.3530057142857 477.6469942857143z" />
    <glyph glyph-name="chevron-right"
      unicode="&#xF108;"
      horiz-adv-x="512" d=" M180.6862933333334 395.3137066666667C186.9346133333334 401.5620266666667 197.0653866666667 401.5620266666667 203.3137066666666 395.3137066666667L331.3130666666667 267.3130666666667C337.5616 261.0645333333333 337.5616 250.9354666666667 331.3130666666667 244.6869333333334L203.3137066666666 116.6869333333334C197.0653866666667 110.4384 186.9346133333334 110.4384 180.6862933333334 116.6869333333334C174.4379733333333 122.9354666666667 174.4379733333333 133.0645333333334 180.6862933333334 139.3130666666667L297.3717333333333 256L180.6862933333334 372.6862933333333C174.4379733333333 378.9346133333334 174.4379733333333 389.0653866666667 180.6862933333334 395.3137066666667z" />
    <glyph glyph-name="chevron-up"
      unicode="&#xF109;"
      horiz-adv-x="877.7142857142857" d=" M34.3530057142857 34.3530057142857C55.7760365714286 12.9301942857143 90.5098971428571 12.9301942857143 111.9327085714286 34.3530057142857L438.8571428571429 361.27744L765.7837714285713 34.3530057142857C787.2073142857143 12.9301942857143 821.9355428571428 12.9301942857143 843.3590857142857 34.3530057142857C864.7826285714285 55.7758171428571 864.7826285714285 90.5098971428572 843.3590857142857 111.9327085714286L477.6469942857143 477.6469942857143C456.2241828571429 499.0700251428572 421.4901028571428 499.0700251428572 400.0672914285714 477.6469942857143L34.3530057142857 111.9327085714286C12.9299748571429 90.5098971428572 12.9299748571429 55.7758171428571 34.3530057142857 34.3530057142857z" />
    <glyph glyph-name="first-line-indent_24"
      unicode="&#xF10A;"
      horiz-adv-x="512" d=" M213.3333333333333 170.6666666666667V128H512V170.6666666666667H213.3333333333333zM213.3333333333333 42.6666666666667H426.6666666666667V85.3333333333334H213.3333333333333V42.6666666666667zM213.3333333333333 213.3333333333334H512V256H213.3333333333333V213.3333333333334zM213.3333333333333 341.3333333333334V298.6666666666667H512V341.3333333333334H213.3333333333333zM298.6666666666667 426.6666666666667V384H512V426.6666666666667H298.6666666666667z M85.3333333333333 384V330.6666666666667L170.6666666666667 405.3333333333334L85.3333333333333 480V426.6666666666667L0 426.6666666666667V384L85.3333333333333 384z" />
    <glyph glyph-name="italic"
      unicode="&#xF10B;"
      horiz-adv-x="512" d=" M197.3333333333333 426.6666666666667C197.3333333333333 435.5031466666667 204.4968533333333 442.6666666666667 213.3333333333333 442.6666666666667H405.3333333333333C414.1696 442.6666666666667 421.3333333333333 435.5031466666667 421.3333333333333 426.6666666666667C421.3333333333333 417.8301866666667 414.1696 410.6666666666667 405.3333333333333 410.6666666666667H213.3333333333333C204.4968533333333 410.6666666666667 197.3333333333333 417.8301866666667 197.3333333333333 426.6666666666667z M90.6666666666667 85.3333333333334C90.6666666666667 94.1696000000001 97.8301866666667 101.3333333333334 106.6666666666667 101.3333333333334H298.6666666666667C307.5029333333333 101.3333333333334 314.6666666666667 94.1696000000001 314.6666666666667 85.3333333333334C314.6666666666667 76.4970666666667 307.5029333333333 69.3333333333334 298.6666666666667 69.3333333333334H106.6666666666667C97.8301866666667 69.3333333333334 90.6666666666667 76.4970666666667 90.6666666666667 85.3333333333334z M325.6170666666667 441.6488533333334C333.8901333333333 438.5461333333334 338.0821333333334 429.3235200000001 334.9802666666667 421.0496L206.98048 79.7162666666667C203.87776 71.4432000000001 194.6551466666667 67.2512 186.3812266666667 70.3530666666667C178.1073066666667 73.4549333333334 173.9150933333333 82.6773333333333 177.0178133333333 90.9525333333334L305.0176 432.28544C308.1216 440.55936 317.344 444.7515733333334 325.6170666666667 441.6488533333334z" />
    <glyph glyph-name="item-handle"
      unicode="&#xF10C;"
      horiz-adv-x="170.66666666666666" d=" M0 398.2222222222223H56.8888888888889V341.3333333333334H0V398.2222222222223zM113.7777777777778 398.2222222222223H170.6666666666667V341.3333333333334H113.7777777777778V398.2222222222223zM0 284.4444444444445H56.8888888888889V227.5555555555556H0V284.4444444444445zM113.7777777777778 284.4444444444445H170.6666666666667V227.5555555555556H113.7777777777778V284.4444444444445zM0 170.6666666666667H56.8888888888889V113.7777777777778H0V170.6666666666667zM113.7777777777778 170.6666666666667H170.6666666666667V113.7777777777778H113.7777777777778V170.6666666666667zM0 56.8888888888889H56.8888888888889V0H0V56.8888888888889zM113.7777777777778 56.8888888888889H170.6666666666667V0H113.7777777777778V56.8888888888889z M56.8888888888889 512H0V455.1111111111111H56.8888888888889V512z M170.6666666666667 512H113.7777777777778V455.1111111111111H170.6666666666667V512z" />
    <glyph glyph-name="minus"
      unicode="&#xF10D;"
      horiz-adv-x="512" d=" M213.3333333333333 432C139.69536 432 80 372.30464 80 298.6666666666667C80 225.0282666666667 139.69536 165.3333333333334 213.3333333333333 165.3333333333334C286.9717333333333 165.3333333333334 346.6666666666667 225.0282666666667 346.6666666666667 298.6666666666667C346.6666666666667 372.30464 286.9717333333333 432 213.3333333333333 432zM48 298.6666666666667C48 389.9778133333334 122.0221866666667 464 213.3333333333333 464C304.6442666666667 464 378.6666666666667 389.9778133333334 378.6666666666667 298.6666666666667C378.6666666666667 258.7733333333334 364.5376 222.1802666666667 341.0090666666667 193.6170666666667L437.9797333333334 96.6464C444.2282666666667 90.3978666666667 444.2282666666667 80.2688 437.9797333333334 74.0202666666667C431.7312 67.7717333333334 421.6021333333333 67.7717333333334 415.3536 74.0202666666667L318.3829333333333 170.9909333333334C289.8197333333333 147.4624 253.2266666666667 133.3333333333334 213.3333333333333 133.3333333333334C122.0221866666667 133.3333333333334 48 207.3557333333333 48 298.6666666666667zM293.3333333333333 298.6666666666667C293.3333333333333 289.8304000000001 286.1696 282.6666666666667 277.3333333333333 282.6666666666667H149.3333333333333C140.4968533333333 282.6666666666667 133.3333333333333 289.8304000000001 133.3333333333333 298.6666666666667C133.3333333333333 307.5031466666667 140.4968533333333 314.6666666666667 149.3333333333333 314.6666666666667L277.3333333333333 314.6666666666667C286.1696 314.6666666666667 293.3333333333333 307.5031466666667 293.3333333333333 298.6666666666667z" />
    <glyph glyph-name="plus"
      unicode="&#xF10E;"
      horiz-adv-x="512" d=" M213.3333333333333 432C139.69536 432 80 372.30464 80 298.6666666666667C80 225.0282666666667 139.69536 165.3333333333334 213.3333333333333 165.3333333333334C286.9717333333333 165.3333333333334 346.6666666666667 225.0282666666667 346.6666666666667 298.6666666666667C346.6666666666667 372.30464 286.9717333333333 432 213.3333333333333 432zM48 298.6666666666667C48 389.9778133333334 122.0221866666667 464 213.3333333333333 464C304.6442666666667 464 378.6666666666667 389.9778133333334 378.6666666666667 298.6666666666667C378.6666666666667 258.7733333333334 364.5376 222.1802666666667 341.0090666666667 193.6170666666667L437.9797333333334 96.6464C444.2282666666667 90.3978666666667 444.2282666666667 80.2688 437.9797333333334 74.0202666666667C431.7312 67.7717333333334 421.6021333333333 67.7717333333334 415.3536 74.0202666666667L318.3829333333333 170.9909333333334C289.8197333333333 147.4624 253.2266666666667 133.3333333333334 213.3333333333333 133.3333333333334C122.0221866666667 133.3333333333334 48 207.3557333333333 48 298.6666666666667zM213.3333333333333 378.6666666666667C222.1696 378.6666666666667 229.3333333333333 371.5031466666667 229.3333333333333 362.6666666666667V314.6666666666667H277.3333333333333C286.1696 314.6666666666667 293.3333333333333 307.5031466666667 293.3333333333333 298.6666666666667C293.3333333333333 289.8304000000001 286.1696 282.6666666666667 277.3333333333333 282.6666666666667H229.3333333333333V234.6666666666667C229.3333333333333 225.8304000000001 222.1696 218.6666666666667 213.3333333333333 218.6666666666667C204.4968533333333 218.6666666666667 197.3333333333333 225.8304000000001 197.3333333333333 234.6666666666667V282.6666666666667H149.3333333333333C140.4968533333333 282.6666666666667 133.3333333333333 289.8304000000001 133.3333333333333 298.6666666666667C133.3333333333333 307.5031466666667 140.4968533333333 314.6666666666667 149.3333333333333 314.6666666666667H197.3333333333333V362.6666666666667C197.3333333333333 371.5031466666667 204.4968533333333 378.6666666666667 213.3333333333333 378.6666666666667z" />
    <glyph glyph-name="redo"
      unicode="&#xF10F;"
      horiz-adv-x="512" d=" M351.3536 373.9803733333333C357.6021333333333 380.2286933333334 367.7312 380.2286933333334 373.9797333333334 373.9803733333333L459.3130666666667 288.6464000000001C465.5616 282.3978666666667 465.5616 272.2688000000001 459.3130666666667 266.0202666666667L373.9797333333334 180.6869333333334C367.7312 174.4384 357.6021333333333 174.4384 351.3536 180.6869333333334C345.1050666666667 186.9354666666667 345.1050666666667 197.0645333333333 351.3536 203.3130666666667L425.3717333333333 277.3333333333334L351.3536 351.35296C345.1050666666667 357.60128 345.1050666666667 367.7320533333334 351.3536 373.9803733333333z M149.3333333333333 261.3333333333334C130.94464 261.3333333333334 113.3098666666667 254.0288000000001 100.3076266666667 241.0261333333334L100.3069866666667 241.0261333333334C87.3047466666667 228.0234666666667 80 210.3893333333334 80 192V149.3333333333334C80 140.4970666666667 72.83648 133.3333333333334 64 133.3333333333334C55.16352 133.3333333333334 48 140.4970666666667 48 149.3333333333334V192C48 218.8757333333334 58.6762666666667 244.6506666666667 77.68 263.6522666666667L88.9934933333333 252.3392L77.68 263.6522666666667C96.68416 282.6581333333334 122.45824 293.3333333333334 149.3333333333333 293.3333333333334H448C456.8362666666667 293.3333333333334 464 286.1696 464 277.3333333333334C464 268.4970666666667 456.8362666666667 261.3333333333334 448 261.3333333333334H149.3333333333333z" />
    <glyph glyph-name="space-after-paragraph_24"
      unicode="&#xF110;"
      horiz-adv-x="512" d=" M213.3333333333333 362.6666666666667V320H512V362.6666666666667H213.3333333333333zM213.3333333333333 234.6666666666667H426.6666666666667V277.3333333333334H213.3333333333333V234.6666666666667zM213.3333333333333 405.3333333333334H426.6666666666667V448H213.3333333333333V405.3333333333334z M85.3333333333333 106.6666666666667V53.3333333333334L170.6666666666667 128L85.3333333333333 202.6666666666667V149.3333333333334H0V106.6666666666667H85.3333333333333z M213.3333333333333 192V64H512L512 192H213.3333333333333zM256 106.6666666666667V149.3333333333334H469.3333333333333V106.6666666666667H256z" />
    <glyph glyph-name="space-before-paragraph_24"
      unicode="&#xF111;"
      horiz-adv-x="512" d=" M213.3333333333333 192V149.3333333333334H512V192H213.3333333333333zM213.3333333333333 64H426.6666666666667V106.6666666666667H213.3333333333333V64zM213.3333333333333 234.6666666666667H426.6666666666667V277.3333333333334H213.3333333333333V234.6666666666667z M85.33376 362.6666666666667V309.3333333333334L170.6670933333333 384L85.33376 458.6666666666667V405.3333333333334L0.0003255210667 405.3333333333334V362.6666666666667L85.33376 362.6666666666667z M213.3333333333333 448V320H512L512 448H213.3333333333333zM256 362.6666666666667V405.3333333333334H469.3333333333333V362.6666666666667H256z" />
    <glyph glyph-name="text-align-center_24"
      unicode="&#xF112;"
      horiz-adv-x="512" d=" M149.3333333333333 192V149.3333333333334H362.6666666666667V192H149.3333333333333zM64 64H448V106.6666666666667H64V64zM64 234.6666666666667H448V277.3333333333334H64V234.6666666666667zM149.3333333333333 362.6666666666667V320H362.6666666666667V362.6666666666667H149.3333333333333zM64 448V405.3333333333334H448V448H64z" />
    <glyph glyph-name="text-align-center"
      unicode="&#xF113;"
      horiz-adv-x="512" d=" M69.3333333333333 426.6666666666667C69.3333333333333 435.5031466666667 76.4968533333333 442.6666666666667 85.3333333333333 442.6666666666667H426.6666666666667C435.5029333333333 442.6666666666667 442.6666666666667 435.5031466666667 442.6666666666667 426.6666666666667C442.6666666666667 417.8301866666667 435.5029333333333 410.6666666666667 426.6666666666667 410.6666666666667H85.3333333333333C76.4968533333333 410.6666666666667 69.3333333333333 417.8301866666667 69.3333333333333 426.6666666666667zM154.6666666666667 320C154.6666666666667 328.8364800000001 161.8301866666667 336 170.6666666666667 336H341.3333333333333C350.1696 336 357.3333333333333 328.8364800000001 357.3333333333333 320C357.3333333333333 311.16352 350.1696 304 341.3333333333333 304H170.6666666666667C161.8301866666667 304 154.6666666666667 311.16352 154.6666666666667 320zM69.3333333333333 213.3333333333334C69.3333333333333 222.1696 76.4968533333333 229.3333333333334 85.3333333333333 229.3333333333334H426.6666666666667C435.5029333333333 229.3333333333334 442.6666666666667 222.1696 442.6666666666667 213.3333333333334C442.6666666666667 204.4970666666667 435.5029333333333 197.3333333333334 426.6666666666667 197.3333333333334H85.3333333333333C76.4968533333333 197.3333333333334 69.3333333333333 204.4970666666667 69.3333333333333 213.3333333333334zM154.6666666666667 106.6666666666667C154.6666666666667 115.5029333333334 161.8301866666667 122.6666666666667 170.6666666666667 122.6666666666667H341.3333333333333C350.1696 122.6666666666667 357.3333333333333 115.5029333333334 357.3333333333333 106.6666666666667C357.3333333333333 97.8304 350.1696 90.6666666666667 341.3333333333333 90.6666666666667H170.6666666666667C161.8301866666667 90.6666666666667 154.6666666666667 97.8304 154.6666666666667 106.6666666666667z" />
    <glyph glyph-name="text-align-justify_24"
      unicode="&#xF114;"
      horiz-adv-x="512" d=" M64 64H448V106.6666666666667H64V64zM64 149.3333333333334H448V192H64V149.3333333333334zM64 234.6666666666667H448V277.3333333333334H64V234.6666666666667zM64 320H448V362.6666666666667H64V320zM64 448V405.3333333333334H448V448H64z" />
    <glyph glyph-name="text-align-lastcenter_24"
      unicode="&#xF115;"
      horiz-adv-x="512" d=" M128 64H384V106.6666666666667H128V64zM64 149.3333333333334H448V192H64V149.3333333333334zM64 234.6666666666667H448V277.3333333333334H64V234.6666666666667zM64 320H448V362.6666666666667H64V320zM64 448V405.3333333333334H448V448H64z" />
    <glyph glyph-name="text-align-lastleft_24"
      unicode="&#xF116;"
      horiz-adv-x="512" d=" M320 64H64V106.6666666666667H320V64zM448 149.3333333333334H64V192H448V149.3333333333334zM448 234.6666666666667H64V277.3333333333334H448V234.6666666666667zM448 320H64V362.6666666666667H448V320zM448 448V405.3333333333334H64V448H448z" />
    <glyph glyph-name="text-align-lastright_24"
      unicode="&#xF117;"
      horiz-adv-x="512" d=" M192 64H448V106.6666666666667H192V64zM64 149.3333333333334H448V192H64V149.3333333333334zM64 234.6666666666667H448V277.3333333333334H64V234.6666666666667zM64 320H448V362.6666666666667H64V320zM64 448V405.3333333333334H448V448H64z" />
    <glyph glyph-name="text-align-left_24"
      unicode="&#xF118;"
      horiz-adv-x="512" d=" M320 192H64V149.3333333333334H320V192zM320 362.6666666666667H64V320H320V362.6666666666667zM64 234.6666666666667H448V277.3333333333334H64V234.6666666666667zM64 64H448V106.6666666666667H64V64zM64 448V405.3333333333334H448V448H64z" />
    <glyph glyph-name="text-align-left"
      unicode="&#xF119;"
      horiz-adv-x="512" d=" M69.3333333333333 426.6666666666667C69.3333333333333 435.5031466666667 76.4968533333333 442.6666666666667 85.3333333333333 442.6666666666667H426.6666666666667C435.5029333333333 442.6666666666667 442.6666666666667 435.5031466666667 442.6666666666667 426.6666666666667C442.6666666666667 417.8301866666667 435.5029333333333 410.6666666666667 426.6666666666667 410.6666666666667H85.3333333333333C76.4968533333333 410.6666666666667 69.3333333333333 417.8301866666667 69.3333333333333 426.6666666666667zM69.3333333333333 320C69.3333333333333 328.8364800000001 76.4968533333333 336 85.3333333333333 336H256C264.8362666666667 336 272 328.8364800000001 272 320C272 311.16352 264.8362666666667 304 256 304H85.3333333333333C76.4968533333333 304 69.3333333333333 311.16352 69.3333333333333 320zM69.3333333333333 213.3333333333334C69.3333333333333 222.1696 76.4968533333333 229.3333333333334 85.3333333333333 229.3333333333334H426.6666666666667C435.5029333333333 229.3333333333334 442.6666666666667 222.1696 442.6666666666667 213.3333333333334C442.6666666666667 204.4970666666667 435.5029333333333 197.3333333333334 426.6666666666667 197.3333333333334H85.3333333333333C76.4968533333333 197.3333333333334 69.3333333333333 204.4970666666667 69.3333333333333 213.3333333333334zM69.3333333333333 106.6666666666667C69.3333333333333 115.5029333333334 76.4968533333333 122.6666666666667 85.3333333333333 122.6666666666667H256C264.8362666666667 122.6666666666667 272 115.5029333333334 272 106.6666666666667C272 97.8304 264.8362666666667 90.6666666666667 256 90.6666666666667H85.3333333333333C76.4968533333333 90.6666666666667 69.3333333333333 97.8304 69.3333333333333 106.6666666666667z" />
    <glyph glyph-name="text-align-right_24"
      unicode="&#xF11A;"
      horiz-adv-x="512" d=" M64 64H448V106.6666666666667H64V64zM192 149.3333333333334H448V192H192V149.3333333333334zM64 234.6666666666667H448V277.3333333333334H64V234.6666666666667zM192 320H448V362.6666666666667H192V320zM64 448V405.3333333333334H448V448H64z" />
    <glyph glyph-name="text-align-right"
      unicode="&#xF11B;"
      horiz-adv-x="512" d=" M69.3333333333333 426.6666666666667C69.3333333333333 435.5031466666667 76.4968533333333 442.6666666666667 85.3333333333333 442.6666666666667H426.6666666666667C435.5029333333333 442.6666666666667 442.6666666666667 435.5031466666667 442.6666666666667 426.6666666666667C442.6666666666667 417.8301866666667 435.5029333333333 410.6666666666667 426.6666666666667 410.6666666666667H85.3333333333333C76.4968533333333 410.6666666666667 69.3333333333333 417.8301866666667 69.3333333333333 426.6666666666667zM240 320C240 328.8364800000001 247.1637333333334 336 256 336H426.6666666666667C435.5029333333333 336 442.6666666666667 328.8364800000001 442.6666666666667 320C442.6666666666667 311.16352 435.5029333333333 304 426.6666666666667 304H256C247.1637333333334 304 240 311.16352 240 320zM69.3333333333333 213.3333333333334C69.3333333333333 222.1696 76.4968533333333 229.3333333333334 85.3333333333333 229.3333333333334H426.6666666666667C435.5029333333333 229.3333333333334 442.6666666666667 222.1696 442.6666666666667 213.3333333333334C442.6666666666667 204.4970666666667 435.5029333333333 197.3333333333334 426.6666666666667 197.3333333333334H85.3333333333333C76.4968533333333 197.3333333333334 69.3333333333333 204.4970666666667 69.3333333333333 213.3333333333334zM240 106.6666666666667C240 115.5029333333334 247.1637333333334 122.6666666666667 256 122.6666666666667H426.6666666666667C435.5029333333333 122.6666666666667 442.6666666666667 115.5029333333334 442.6666666666667 106.6666666666667C442.6666666666667 97.8304 435.5029333333333 90.6666666666667 426.6666666666667 90.6666666666667H256C247.1637333333334 90.6666666666667 240 97.8304 240 106.6666666666667z" />
    <glyph glyph-name="text-indent-left_24"
      unicode="&#xF11C;"
      horiz-adv-x="512" d=" M298.6666666666667 192V149.3333333333334H426.6666666666667V192H298.6666666666667zM298.6666666666667 64H512V106.6666666666667H298.6666666666667V64zM298.6666666666667 234.6666666666667H512V277.3333333333334H298.6666666666667V234.6666666666667zM298.6666666666667 362.6666666666667V320H426.6666666666667V362.6666666666667H298.6666666666667zM298.6666666666667 448V405.3333333333334H512V448H298.6666666666667z M213.3333333333333 469.3333333333333H256V42.6666666666667H213.3333333333333V469.3333333333333z M85.3329066666667 245.3333333333334V192L170.66624 266.6666666666667L85.3329066666667 341.3333333333334V288H-0.0003255210667V245.3333333333334H85.3329066666667z" />
    <glyph glyph-name="text-indent-right_24"
      unicode="&#xF11D;"
      horiz-adv-x="512" d=" M213.3333333333333 192V149.3333333333334H85.3333333333333V192H213.3333333333333zM213.3333333333333 64H0V106.6666666666667H213.3333333333333V64zM213.3333333333333 234.6666666666667H0V277.3333333333334H213.3333333333333V234.6666666666667zM213.3333333333333 362.6666666666667V320H85.3333333333333V362.6666666666667H213.3333333333333zM213.3333333333333 448V405.3333333333334H0V448H213.3333333333333z M298.6666666666667 469.3333333333333H256V42.6666666666667H298.6666666666667V469.3333333333333z M426.6666666666667 245.3333333333334V192L341.3333333333333 266.6666666666667L426.6666666666667 341.3333333333334V288H512V245.3333333333334H426.6666666666667z" />
    <glyph glyph-name="toggle-oi"
      unicode="&#xF11E;"
      horiz-adv-x="512" d=" M248.8448 483.64416C253.3482666666667 485.89632 258.6517333333333 485.89632 263.1552 483.64416L476.4885333333333 376.9774933333333C481.9093333333333 374.2673066666667 485.3333333333333 368.72704 485.3333333333333 362.6666666666667C485.3333333333333 356.6062933333334 481.9093333333333 351.0660266666667 476.4885333333333 348.35584L263.1552 241.6896000000001C258.6517333333333 239.4368 253.3482666666667 239.4368 248.8448 241.6896000000001L35.5112533333333 348.35584C30.0906666666667 351.0660266666667 26.6666666666667 356.6062933333334 26.6666666666667 362.6666666666667C26.6666666666667 368.72704 30.0906666666667 374.2673066666667 35.5112533333333 376.9774933333333L248.8448 483.64416zM78.4437333333333 362.6666666666667L256 273.8880000000001L433.5552 362.6666666666667L256 451.4446933333334L78.4437333333333 362.6666666666667z M28.3566933333333 156.4885333333334C32.30848 164.3925333333334 41.91936 167.5946666666668 49.8229333333333 163.6437333333333L256 60.5546666666667L462.1781333333333 163.6437333333333C470.0821333333333 167.5946666666668 479.6928 164.3925333333334 483.6458666666666 156.4885333333334C487.5968 148.5845333333334 484.3925333333333 138.9738666666667 476.4906666666666 135.0208L263.1573333333334 28.3541333333334C258.6517333333333 26.1034666666667 253.3504 26.1034666666667 248.8448 28.3541333333334L35.5121066666667 135.0208C27.6085333333333 138.9738666666667 24.4049066666667 148.5845333333334 28.3566933333333 156.4885333333334z M28.3566933333333 263.1552000000001C32.30848 271.0592000000001 41.91936 274.2613333333334 49.8229333333333 270.3104L256 167.2213333333334L462.1781333333333 270.3104C470.0821333333333 274.2613333333334 479.6928 271.0592000000001 483.6458666666666 263.1552000000001C487.5968 255.2512000000001 484.3925333333333 245.6405333333334 476.4906666666666 241.6874666666667L263.1573333333334 135.0208C258.6517333333333 132.7701333333334 253.3504 132.7701333333334 248.8448 135.0208L35.5121066666667 241.6874666666667C27.6085333333333 245.6405333333334 24.4049066666667 255.2512000000001 28.3566933333333 263.1552000000001z" />
    <glyph glyph-name="underline"
      unicode="&#xF11F;"
      horiz-adv-x="533.3333333333333" d=" M154.6666666666667 448V298.6666666666667C154.6666666666667 268.9621333333334 166.46656 240.4757333333333 187.47072 219.4709333333333C208.4744533333333 198.4661333333334 236.9621333333334 186.6666666666667 266.6666666666667 186.6666666666667C296.3712 186.6666666666667 324.8576 198.4661333333334 345.8624 219.4709333333333C366.8672 240.4736000000001 378.6666666666667 268.9621333333334 378.6666666666667 298.6666666666667V448C378.6666666666667 456.83648 385.8304 464 394.6666666666667 464C403.5029333333333 464 410.6666666666667 456.83648 410.6666666666667 448V298.6666666666667C410.6666666666667 260.4757333333333 395.4965333333334 223.8506666666667 368.4906666666667 196.8448C341.4848 169.8368 304.8576 154.6666666666667 266.6666666666667 154.6666666666667C228.4757333333333 154.6666666666667 191.8485333333333 169.8368 164.84288 196.8448C137.8378666666667 223.8485333333334 122.6666666666667 260.4757333333333 122.6666666666667 298.6666666666667V448C122.6666666666667 456.83648 129.8301866666667 464 138.6666666666667 464C147.50336 464 154.6666666666667 456.83648 154.6666666666667 448z M80 64C80 72.8362666666667 87.16352 80 96 80H437.3333333333333C446.1696 80 453.3333333333333 72.8362666666667 453.3333333333333 64C453.3333333333333 55.1637333333333 446.1696 48 437.3333333333333 48H96C87.16352 48 80 55.1637333333333 80 64z" />
    <glyph glyph-name="undo"
      unicode="&#xF120;"
      horiz-adv-x="512" d=" M160.64704 373.9803733333333C166.89536 367.7320533333334 166.89536 357.60128 160.64704 351.35296L86.6274133333333 277.3333333333334L160.64704 203.3130666666667C166.89536 197.0645333333333 166.89536 186.9354666666667 160.64704 180.6869333333334C154.39872 174.4384 144.2679466666667 174.4384 138.0196266666667 180.6869333333334L52.6862933333333 266.0202666666667C46.4379733333333 272.2688000000001 46.4379733333333 282.3978666666667 52.6862933333333 288.6464000000001L138.0196266666667 373.9803733333333C144.2679466666667 380.2286933333334 154.39872 380.2286933333334 160.64704 373.9803733333333z M48 277.3333333333334C48 286.1696 55.16352 293.3333333333334 64 293.3333333333334H362.6666666666667C389.5424 293.3333333333334 415.3152 282.6581333333334 434.3189333333333 263.6544C434.3189333333333 263.6522666666667 434.3189333333333 263.6522666666667 434.3210666666667 263.6522666666667M434.3210666666667 263.6522666666667C453.3248 244.6485333333334 464 218.8757333333334 464 192V149.3333333333334C464 140.4970666666667 456.8362666666667 133.3333333333334 448 133.3333333333334C439.1637333333333 133.3333333333334 432 140.4970666666667 432 149.3333333333334V192C432 210.3893333333334 424.6954666666666 228.0234666666667 411.6928000000001 241.024L411.6906666666667 241.0261333333334C398.6901333333334 254.0288000000001 381.056 261.3333333333334 362.6666666666667 261.3333333333334H64C55.16352 261.3333333333334 48 268.4970666666667 48 277.3333333333334" />
  </font>
</defs>
</svg>
