<?xml version="1.0" standalone="no"?>
<!DOCTYPE svg PUBLIC "-//W3C//DTD SVG 1.1//EN" "http://www.w3.org/Graphics/SVG/1.1/DTD/svg11.dtd" >
<svg xmlns="http://www.w3.org/2000/svg">
<metadata>Generated by IcoMoon</metadata>
<defs>
<font id="icomoon" horiz-adv-x="512">
<font-face units-per-em="512" ascent="480" descent="-32" />
<missing-glyph horiz-adv-x="512" />
<glyph unicode="&#x20;" horiz-adv-x="256" d="" />
<glyph unicode="&#xe600;" glyph-name="appbaraddmultiple" d="M268.042 127.661h84.298v84.298h60.212v-84.298h84.298v-60.212h-84.298v-84.298h-60.212v84.298h-84.298v60.212zM171.702 380.552h84.298v84.298h60.212v-84.298h84.298v-60.212h-84.298v-84.298h-60.213v84.298h-84.297v60.212zM15.15 211.958h84.297v84.298h60.212v-84.298h84.297v-60.212h-84.298v-84.298h-60.213v84.298h-84.297v60.212z" />
<glyph unicode="&#xe601;" glyph-name="appbaradd" d="M217.464 468.060h77.072v-205.524h205.524v-77.072h-205.524v-205.524h-77.072v205.524h-205.524v77.072h205.524v205.524z" />
<glyph unicode="&#xe602;" glyph-name="appbaraligncenter" d="M114.703 442.37h282.595v-51.382h-282.595v51.382zM37.63 365.297h436.74v-51.38h-436.74v51.38zM89.011 288.226h333.976v-51.382h-333.976v51.382zM11.941 211.154l488.121 0v-51.382h-488.121v51.38zM114.703 134.082h282.595v-51.38h-282.595v51.38zM63.321 57.011h385.358v-51.382h-385.358v51.382z" />
<glyph unicode="&#xe603;" glyph-name="appbaralignjustify" d="M500.059 442.37v-51.38h-488.12v51.38h488.12zM500.059 365.297v-51.379h-488.12v51.379h488.12zM500.063 288.226v-51.379l-488.121-0.001v51.38l488.121 0zM500.059 211.156v-51.38h-488.12v51.38h488.12zM500.063 134.082v-51.379h-488.121v51.379h488.121zM500.063 57.009v-51.379h-488.121v51.379h488.121z" />
<glyph unicode="&#xe604;" glyph-name="appbaralignleft" d="M11.941 442.37v-51.38h321.13v51.38h-321.13zM11.941 365.297v-51.379h385.358v51.379h-385.358zM11.941 288.226v-51.379h308.286v51.379h-308.286zM11.941 211.156v-51.38h423.894v51.38h-423.894zM11.941 134.082v-51.379h346.822v51.379h-346.822zM11.941 57.009v-51.379h411.048v51.379h-411.048z" />
<glyph unicode="&#xe605;" glyph-name="appbaralignright" d="M500.063 442.37v-51.38h-321.13v51.38h321.13zM500.063 365.297v-51.379h-385.358v51.379h385.358zM500.063 288.226v-51.379h-308.287v51.379h308.287zM500.063 211.154v-51.379h-423.896v51.379h423.896zM500.063 134.082v-51.379h-346.824v51.379h346.824zM500.063 57.009v-51.379h-411.049v51.379h411.049z" />
<glyph unicode="&#xe606;" glyph-name="appbarbarcode" d="M11.941 468.060h15.255v-488.121h-15.255v488.121zM52.616 468.060h20.338v-488.121h-20.338v488.121zM93.294 468.060h40.677v-488.121h-40.677v488.121zM154.309 468.060h20.338v-488.121h-20.338v488.121zM194.985 468.060h10.168v-488.121h-10.168v488.121zM256 468.060h61.015v-488.121h-61.015v488.121zM337.353 468.060h20.337v-488.121h-20.337v488.121zM418.706 468.060h40.675v-488.121h-40.675v488.121zM479.721 468.060h20.337v-488.121h-20.337v488.121zM378.030 468.060h10.169v-488.121h-10.169v488.121z" />
<glyph unicode="&#xe607;" glyph-name="appbarclose" d="M113.631 427.383l142.368-142.368 142.368 142.367 61.015-61.015-142.368-142.367 142.368-142.369-61.014-61.015-142.369 142.369-142.368-142.369-61.015 61.015 142.369 142.368-142.368 142.368 61.013 61.015z" />
<glyph unicode="&#xe608;" glyph-name="appbardrawbutton" d="M240 396.82l157.108-172.82-204.242-204.241-172.82 172.818 82.482 82.482c0 0 180.677-54.988 200.313-15.71 31.421 47.133-47.133 58.916-47.133 43.205 15.711-15.711 27.494-35.35 27.494-35.35s-200.313 3.929-231.735 82.483c-15.71 62.843 168.892 27.495 168.892 27.495l19.639 19.639zM192.867 353.615c0 0-98.193 7.854-98.193-7.856s58.915-23.567 58.915-23.567l39.278 31.422zM397.108 239.71l-109.976 125.687c0 0 87.216-61.805 102.12-66.771 11.784-3.928 39.279 19.639 70.7 3.929s-0-51.061-0-35.351-47.132 3.929-47.132 3.929c78.554-15.711 94.264-47.133 78.554-62.843s-35.35-15.711-35.35 0-58.916 31.421-58.916 31.421z" />
<glyph unicode="&#xe609;" glyph-name="appbardrawpencil" d="M54.85 85.51l-23.599-102.257 96.683 22.311c-12.245 36.844-32.778 69.874-73.085 79.946zM217.303 20.462l283.037 283.037c-21.757 44.24-53.26 82.822-91.71 112.945l-265.747-265.747v-55.815h74.419v-74.419zM124.278 160l268.271 268.271c-13.029 8.978-26.742 17.034-41.048 24.070l-273.735-273.735v-18.605h46.513z" />
<glyph unicode="&#xe60a;" glyph-name="appbareditbox" d="M456.889 439.495l14.606-14.606c18.151-18.15 18.151-47.578 0-65.73l-25.561-25.561-80.335 80.335 25.561 25.561c18.151 18.15 47.578 18.15 65.729 0zM234.142 121.805l-80.335 80.335 197.187 197.188 80.336-80.336-197.188-197.187zM146.502 172.929l58.427-58.426-81.093-22.666 22.666 81.092zM27.194-4.806v385.358h262.601l-48.17-48.17h-166.262v-289.017h361.274v244.567l48.17 48.171v-340.909h-457.613z" />
<glyph unicode="&#xe60b;" glyph-name="appbarimagelandscape" d="M12.563 382.762h486.872v-317.526h-486.872v317.526zM44.316 351.010v-254.019h423.366v254.019h-423.366zM128.989 118.159l64.386 70.562 33.517-33.517 134.066 134.066 50.275-50.275 35.281 37.926v-158.762h-317.526zM151.040 309.555c0-37.021-30.011-67.032-67.032-67.032-5.787 0-13.165 1.268-18.523 2.647v84.673h81.144c1.38-5.357 4.41-14.501 4.41-20.286z" />
<glyph unicode="&#xe60c;" glyph-name="appbarmagnifyadd" d="M317.659 443.226c94.592 0 171.27-76.68 171.27-171.27s-76.68-171.271-171.27-171.271c-32.395 0-62.691 8.995-89.061 24.080l-123.659-123.661c-16.052-16.050-42.080-16.050-58.13 0-16.050 16.053-16.050 42.079 0 58.13l124.205 124.194c-15.629 25.837-24.624 56.13-24.624 88.526 0 94.592 76.68 171.271 171.27 171.271zM317.659 388.421c-64.322 0-116.464-52.142-116.464-116.464s52.142-116.464 116.464-116.464c64.322 0 116.464 52.142 116.464 116.464s-52.142 116.464-116.464 116.464zM297.104 347.314h41.104v-54.807h54.807v-41.105h-54.807v-54.807h-41.105v54.807h-54.807v41.105h54.807v54.807z" />
<glyph unicode="&#xe60d;" glyph-name="appbarmagnifyminus" d="M317.659 443.226c94.592 0 171.27-76.68 171.27-171.27s-76.68-171.271-171.27-171.271c-32.395 0-62.691 8.995-89.061 24.080l-123.659-123.661c-16.052-16.050-42.080-16.050-58.13 0-16.050 16.053-16.050 42.079 0 58.13l124.205 124.194c-15.629 25.837-24.624 56.13-24.624 88.526 0 94.592 76.68 171.271 171.27 171.271zM317.659 388.421c-64.322 0-116.464-52.142-116.464-116.464s52.142-116.464 116.464-116.464c64.322 0 116.464 52.142 116.464 116.464s-52.142 116.464-116.464 116.464zM393.015 292.509v-41.105h-150.719v41.105h150.719z" />
<glyph unicode="&#xe60e;" glyph-name="appbarpagecornergrid" d="M468.831 438.044h-395.711c-8.383-12.944-15.749-26.608-21.984-40.88h25.245v-40.88h-39.507c-0.719-2.711-1.4-5.435-2.040-8.176h41.547v-40.88h-48.020c-0.23-2.715-0.423-5.441-0.577-8.176h48.597v-40.88h-48.020c0.233-2.737 0.503-5.462 0.811-8.176h47.207v-40.88h-39.507c1.465-5.518 3.088-10.971 4.87-16.351h34.638v-40.88h-17.472c1.417-2.752 2.877-5.478 4.379-8.176h13.092v-21.275c2.633-3.888 5.359-7.707 8.176-11.457v32.733h40.88v-40.88h-34.526c2.24-2.768 4.531-5.495 6.87-8.176h27.656v-27.656c2.682-2.339 5.408-4.63 8.176-6.87v34.526h40.88v-40.88h-32.733c3.749-2.817 7.569-5.543 11.457-8.176h21.275v-13.093c2.699-1.502 5.424-2.962 8.176-4.379v17.473h40.88v-34.637c5.381-1.781 10.834-3.404 16.352-4.87v39.507h40.88v-47.207c2.714-0.309 5.44-0.579 8.176-0.812v48.019h40.88v-48.597c2.736 0.154 5.462 0.346 8.176 0.577v48.019h40.88v-41.546c2.74 0.64 5.467 1.321 8.176 2.040v39.507h40.88v-25.245c14.271 6.235 27.936 13.601 40.88 21.984v395.71zM427.95 94.651v-40.88h-40.88v40.88h40.88zM378.894 94.651v-40.88h-40.88v40.88h40.88zM329.838 94.651v-40.88h-40.88v40.88h40.88zM280.782 94.651v-40.88h-40.88v40.88h40.88zM223.549 94.651v-40.88h-40.88v40.88h40.88zM427.95 143.707l-0-40.88h-40.88v40.88h40.88zM378.894 143.707v-40.88h-40.88v40.88h40.88zM329.838 143.707v-40.88h-40.88v40.88h40.88zM280.782 143.707v-40.88h-40.88v40.88h40.88zM223.549 143.707v-40.88h-40.88v40.88h40.88zM174.494 143.707v-40.88h-40.88v40.88h40.88zM427.95 192.763v-40.88h-40.88v40.88h40.88zM378.894 192.763v-40.88h-40.88v40.88h40.88zM329.838 192.763v-40.88h-40.88v40.88h40.88zM280.782 192.763v-40.88h-40.88v40.88h40.88zM223.549 192.763v-40.88h-40.88v40.88h40.88zM174.494 192.763v-40.88h-40.88v40.88h40.88zM125.438 192.763v-40.88h-40.88v40.88h40.88zM427.95 249.995v-40.88h-40.88v40.88h40.88zM378.894 249.995v-40.88h-40.88v40.88h40.88zM329.838 249.995v-40.88h-40.88v40.88h40.88zM280.782 249.995v-40.88h-40.88v40.88h40.88zM223.549 249.995v-40.88h-40.88v40.88h40.88zM174.494 249.995v-40.88h-40.88v40.88h40.88zM125.438 249.995v-40.88h-40.88v40.88h40.88zM427.95 299.052v-40.88h-40.88v40.88h40.88zM378.894 299.052v-40.88h-40.88v40.88h40.88zM329.838 299.052v-40.88h-40.88v40.88h40.88zM280.782 299.052v-40.88h-40.88v40.88h40.88zM223.549 299.052v-40.88h-40.88v40.88h40.88zM174.494 299.052v-40.88h-40.88v40.88h40.88zM125.438 299.052v-40.88h-40.88v40.88h40.88zM427.95 348.107v-40.88h-40.88v40.88h40.88zM378.894 348.107v-40.88h-40.88v40.88h40.88zM329.838 348.107v-40.88h-40.88v40.88h40.88zM280.782 348.107v-40.88h-40.88v40.88h40.88zM223.549 348.107v-40.88h-40.88v40.88h40.88zM174.494 348.107v-40.88h-40.88v40.88h40.88zM125.438 348.107v-40.88h-40.88v40.88h40.88zM427.95 397.163v-40.88h-40.88v40.881l40.88-0zM378.894 397.165v-40.881h-40.88v40.88l40.88 0.001zM329.838 397.163v-40.88h-40.88v40.88h40.88zM280.782 397.163v-40.88h-40.88v40.88h40.88zM223.549 397.163v-40.88h-40.88v40.88h40.88zM174.494 397.163v-40.88h-40.88v40.88h40.88zM125.438 397.163v-40.88h-40.88v40.88h40.88z" />
<glyph unicode="&#xe60f;" glyph-name="appbarqr" d="M65.329 414.671h38.133v-38.133h-38.133v38.133zM27.191 452.803h114.403v-114.403h-114.403v114.403zM46.258 433.736v-76.27h76.27v76.27h-76.27zM408.536 414.668h38.133v-38.134h-38.134v38.134zM370.4 452.803h114.403v-114.403h-114.403v114.403zM389.467 433.736v-76.27h76.27v76.27h-76.27zM65.328 71.462h38.133v-38.134h-38.133v38.134zM27.191 109.596h114.403v-114.403h-114.403v114.403zM46.258 90.529v-76.27h76.27v76.27h-76.27zM27.191 300.265h38.135v-38.133h38.133v-38.135h76.27v38.135l-76.269 0v38.135l76.269-0.002v-38.133h76.267v-76.269h-38.133v-38.133h76.268v-76.269h-38.135l0-38.135h38.134v-38.135h-38.133v38.135l-38.133 0v-38.135h-38.133v114.403l38.131-0 0-38.134h38.132v38.134l-38.132 0-0 38.134-76.267 0-0 38.132-76.269-0v-38.132h-38.135v38.134l38.135-0v76.27h-38.135v38.134zM217.864 223.998h-38.133l0-38.132 38.132-0v38.134zM294.132 262.131h38.135v38.135h-76.269v38.135h-38.135v-38.135h-38.133v38.135h38.133v38.135h-38.133l0 76.27h38.133l-0-76.27h38.135v38.134h38.135v38.135h38.135l-0-76.269h-38.133v-38.135h38.134l0-38.134h38.135v-76.268l38.134-0v-38.133h38.135v-76.269h38.135l-0-76.27h-38.134v38.135h-38.135v-76.269h-76.269v38.134h38.135v38.135h-38.135v38.135h38.135v-38.135h38.134v76.269h-38.135v76.269h-38.135v-76.269l-38.132 0-0.002 114.4zM408.536 300.268h38.135l0-38.134h38.133v-38.133h-76.267l-0.002 76.268z" />
<glyph unicode="&#xe610;" glyph-name="appbarundo" d="M82.469 462.633l-65.072-65.073-0-173.531h173.531l65.073 65.073-121.277 0.012c29.791 33.287 73.089 54.238 121.279 54.238 89.862 0 162.707-72.847 162.707-162.707 0-44.929-18.213-85.606-47.656-115.050l53.689-53.689c43.185 43.185 69.895 102.845 69.895 168.74 0 131.797-106.841 238.637-238.637 238.637-68.379 0-130.041-28.758-173.549-74.839l0.019 118.192z" />
<glyph unicode="&#xe611;" glyph-name="appbarredo" d="M429.531 462.633l65.072-65.073 0-173.531h-173.531l-65.073 65.073 121.277 0.012c-29.791 33.287-73.089 54.238-121.279 54.238-89.862 0-162.707-72.847-162.707-162.707 0-44.929 18.213-85.606 47.656-115.050l-53.689-53.689c-43.184 43.185-69.895 102.845-69.895 168.74 0 131.797 106.841 238.637 238.637 238.637 68.379 0 130.041-28.758 173.549-74.839l-0.019 118.192z" />
<glyph unicode="&#xe612;" glyph-name="appbartextbold" d="M131.811-1.797v429.012h135.406c41.305 0 74.009-8.969 98.108-26.91s36.15-41.304 36.15-70.098c0-24.070-6.784-44.991-20.349-62.77-13.566-17.781-32.32-30.405-56.26-37.873v-1.245c28.855-3.383 51.904-14.397 69.139-33.039 17.237-18.642 25.856-42.87 25.856-72.683 0-37.028-14.332-67.018-42.998-89.967s-64.863-34.425-108.594-34.425h-136.459zM199.713 372.057v-122.576h50.653c24.194 0 43.173 5.857 56.928 17.573 13.757 11.716 20.637 28.298 20.637 49.749 0 36.837-24.005 55.254-72.011 55.254h-56.207zM199.713 194.323v-140.96h65.112c25.983 0 46.062 6.37 60.234 19.105 14.173 12.736 21.259 30.278 21.259 52.62 0 46.157-30.198 69.237-90.591 69.237h-56.016z" />
<glyph unicode="&#xe613;" glyph-name="appbartextitalic" d="M368.202 434.149l-7.829-45.722h-42.902l-62.625-337.565h42.902l-7.827-45.722h-146.124l7.828 45.722h42.902l62.623 337.565h-42.902l7.828 45.723h146.124z" />
<glyph unicode="&#xe614;" glyph-name="appbartextsizeplus" d="M335.029 370.767h56.449v56.449h45.159v-56.449h56.45v-45.159h-56.45v-56.449h-45.159v56.449h-56.449v45.16zM415.671 20.784h-75.481l-35.834 104.51h-156.314l-34.291-104.51h-75.48l151.504 406.433h75.572l150.326-406.433zM286.935 177.55l-55.251 165.93c-1.632 5.323-3.387 13.881-5.262 25.674h-1.18c-1.632-10.825-3.478-19.384-5.535-25.674l-54.523-165.93h121.749z" />
<glyph unicode="&#xe615;" glyph-name="appbartextunderline" d="M64.073 9.495v45.159h383.853v-45.159h-383.853zM390.913 225.44c0-100.334-45.315-150.502-135.947-150.502-86.793 0-130.19 48.274-130.19 144.825v218.556h40.944v-217.035c0-73.679 31.241-110.519 93.724-110.519 60.35 0 90.525 35.586 90.525 106.759v220.794h40.945v-212.878z" />
<glyph unicode="&#xe616;" glyph-name="appbargradea" d="M477.786 7.058h-109.373l-28.635 89.091h-163.964l-28.338-89.091h-108.779l161.975 445.455h118.822l158.294-445.455zM313.029 185.243l-46.734 147.653c-3.645 11.203-6.163 24.558-7.555 40.071h-2.486c-0.796-13.058-3.416-25.985-7.855-38.777l-47.63-148.944h112.258z" />
<glyph unicode="&#xe617;" glyph-name="appbarimageants" d="M27.194 452.806h96.339v-60.212h-96.339v60.212zM159.661 452.806h96.339v-60.212h-96.339v60.212zM292.127 452.806h96.339v-60.212h-96.339v60.212zM424.594 452.806h60.212v-96.339h-60.212v96.339zM424.594 320.339h60.212v-96.339h-60.212v96.339zM424.594 187.873h60.212v-96.339h-60.212v96.339zM123.532 55.406h96.339v-60.212h-96.339v60.212zM256 55.406h96.339v-60.212h-96.339v60.212zM388.467 55.406h96.339v-60.212h-96.339v60.212zM27.194 356.467h60.212v-96.339h-60.212v96.339zM27.194 224h60.212v-96.339h-60.212v96.339zM27.194 91.533h60.212v-96.339h-60.212v96.339z" />
<glyph unicode="&#xe618;" glyph-name="appbarvectorcircle" d="M256 243.845c-10.96 0-19.845-8.885-19.845-19.845s8.885-19.845 19.845-19.845c10.96 0 19.845 8.885 19.845 19.845s-8.885 19.845-19.845 19.845zM256 263.691c21.921 0 39.691-17.77 39.691-39.691s-17.77-39.691-39.691-39.691c-21.921 0-39.691 17.77-39.691 39.691s17.77 39.691 39.691 39.691zM451.973 243.845c-10.96 0-19.845-8.885-19.845-19.845s8.885-19.845 19.845-19.845c10.96 0 19.845 8.885 19.845 19.845s-8.885 19.845-19.845 19.845zM491.664 224c0-18.89-13.198-34.699-30.875-38.709-18.144-96.587-102.931-169.667-204.786-169.667-115.082 0-208.376 93.293-208.376 208.376s93.293 208.376 208.376 208.376c101.856 0 186.643-73.081 204.786-169.667 17.678-4.008 30.875-19.817 30.875-38.709zM412.283 224c0 14.382 7.651 26.98 19.105 33.942-15.854 82.411-88.351 144.667-175.387 144.667-98.642 0-178.607-79.966-178.607-178.608s79.965-178.608 178.607-178.608c87.036 0 159.533 62.256 175.387 144.667-11.454 6.962-19.105 19.558-19.105 33.942z" />
<glyph unicode="&#xe619;" glyph-name="appbarvectorrectangle" d="M75.364 344.423v-12.042h-12.042v-216.763h12.042v-12.042h361.274v12.042h12.042v216.763h-12.042v12.042h-361.274zM496.85 115.618v-60.212h-60.212v12.042h-361.274v-12.042h-60.212v60.212h12.042v216.763h-12.042v60.213h60.212v-12.042h361.274v12.042h60.212v-60.213h-12.042v-216.763h12.042zM27.194 380.552v-36.127h36.127v36.127h-36.127zM448.679 380.552v-36.127h36.127v36.127h-36.127zM27.194 103.577v-36.127h36.127v36.127h-36.127zM448.679 103.577v-36.127h36.127v36.127h-36.127z" />
<glyph unicode="&#xe61a;" glyph-name="appbararrowdown" d="M304.17 447.47h-96.339v-298.051l-120.424 120.424v-126.447l168.594-168.594 168.594 168.594v126.447l-120.423-120.424v298.051z" />
<glyph unicode="&#xe61b;" glyph-name="appbararrowleft" d="M484.806 175.83v96.339h-298.051l120.423 120.423h-126.447l-168.594-168.594 168.594-168.594h126.447l-120.423 120.423h298.051z" />
<glyph unicode="&#xe61c;" glyph-name="appbararrowright" d="M27.197 272.17v-96.339h298.051l-120.423-120.423h126.447l168.594 168.594-168.594 168.594h-126.447l120.423-120.423h-298.051z" />
<glyph unicode="&#xe61d;" glyph-name="appbararrowup" d="M207.83-4.806h96.339v298.051l120.423-120.423v126.447l-168.594 168.594-168.594-168.594v-126.447l120.423 120.423v-298.051z" />
<glyph unicode="&#xe61e;" glyph-name="appbarlayerarrangebringtofront" d="M399.003 367.004v-286.010h-286.010v286.010h286.010zM23.622 456.378h26.814l-26.814-26.814v26.814zM139.814 456.378l-116.195-116.195v71.507l44.689 44.687h71.506zM238.127 442.971l-0.001-58.096h-62.561l58.096 58.096h4.466zM37.026 241.869v4.466l58.096 58.098v-62.561l-58.096-0.002zM23.619 322.306l134.066 134.070h71.505l-71.501-71.502h-62.568v-62.568l-71.503-71.503v71.502zM488.382-8.382h-26.814l26.814 26.814v-26.814zM372.188-8.382l116.193 116.195v-71.507l-44.687-44.687h-71.506zM273.875 5.025l0 58.096h62.562l-58.097-58.096h-4.466zM474.976 206.127v-4.466l-58.096-58.098v62.562l58.096 0.002zM488.382 125.688l-134.066-134.070h-71.504l71.501 71.502h62.568v62.568l71.501 71.503v-71.503z" />
<glyph unicode="&#xe61f;" glyph-name="appbarlayerarrangesendtoback" d="M381.687 349.687v-157.11h-94.265v-94.265h-157.109v157.109h94.265v94.265h157.109zM20.336 459.664h23.567l-23.567-23.567v23.567zM122.46 459.663l-102.124-102.125v62.849l39.276 39.277 62.849-0zM28.191 271.13l180.678 180.677-0-62.85-117.829-117.826h-62.846zM20.336 341.827l117.832 117.836h62.846l-180.678-180.679v62.843zM106.746 271.13l102.12 102.121v-62.843l-39.272-39.279h-62.849zM491.664-11.664h-23.567l23.567 23.567v-23.567zM389.539-11.664l102.125 102.125v-62.849l-39.276-39.276h-62.849zM483.808 176.87l-180.677-180.677v62.849l117.831 117.826h62.846zM491.664 106.173l-117.832-117.836h-62.846l180.678 180.678v-62.843zM405.251 176.87l-102.119-102.121v62.843l39.272 39.279h62.847z" />
<glyph unicode="&#xe620;" glyph-name="appbarlayerarrangesolidbringtofront" d="M109.233 370.767h293.535v-293.535h-293.535v293.535zM18.915 461.086h180.637v-79.029h-33.869v45.159h-112.897v-112.897h45.159v-33.869h-79.029v180.637zM493.086 167.551v-180.637h-180.637v79.029h33.869v-45.159h112.897v112.897h-45.159v33.869h79.029z" />
<glyph unicode="&#xe621;" glyph-name="appbarlayerarrangesolidsendtoback" d="M18.915 461.086h180.637v-180.637h-180.637v180.637zM312.449 167.551h180.637v-180.637h-180.637v180.637zM402.767 370.767v-191.926h-101.608v-101.608h-191.927v191.926h101.607v101.608h191.926zM346.318 133.682v-112.897h112.897v112.897h-112.897zM52.785 427.216v-112.897h112.897v112.897h-112.897z" />
<glyph unicode="&#xe622;" glyph-name="appbarlayerdown" d="M256 465.739l228.805-114.403-228.805-114.404-228.809 114.404 228.809 114.403zM217.855 198.798h76.257v-109.621l76.257 81.024v-71.493l-114.387-119.152-114.387 119.152v71.493l76.257-81.024v109.621z" />
<glyph unicode="&#xe623;" glyph-name="appbarlayerup" d="M256-23.873l-228.805 114.403 228.805 114.403 228.809-114.403-228.809-114.403zM294.145 243.066h-76.257v109.621l-76.257-81.025v71.495l114.387 119.152 114.387-119.152v-71.495l-76.257 81.025v-109.621z" />
<glyph unicode="&#xe624;" glyph-name="appbarlayerthick" d="M256 456.381l232.381-89.377v-53.625l-232.381-89.377-232.381 89.377v53.625l232.381 89.377zM488.382 98.872v-35.751l-232.382-89.377-232.381 89.377v35.751l46.475 17.875 185.906-71.501 185.905 71.501 46.476-17.875zM488.382 224v-35.751l-232.382-89.377-232.381 89.377v35.751l46.475 17.875 185.906-71.502 185.905 71.502 46.476-17.875z" />
<glyph unicode="&#xe625;" glyph-name="appbarcenterline" d="M377.263 237.474v-26.947h-107.79v-107.79h-26.947v107.789h-107.79v26.947h107.79v107.789h26.947v-107.789h107.789zM53.895 230.737v-13.473h-33.59l-0.095 6.737 0.095 6.737h33.59zM87.579 230.737v-13.473h-20.21v13.474h20.21zM121.263 230.737v-13.473h-20.21v13.474h20.21zM262.737 426.105h-13.474v33.59l6.737 0.094 6.737-0.094v-33.59zM262.737 358.736h-13.474v20.211h13.474v-20.211zM249.263 412.631h13.473v-20.21h-13.474v20.21zM458.106 217.263v13.474h33.59l0.094-6.737-0.094-6.737h-33.59zM424.421 217.263v13.474h20.211v-13.474h-20.211zM390.736 217.263v13.474h20.211v-13.474h-20.211zM249.263 21.894h13.473v-33.59l-6.737-0.094-6.737 0.094v33.59zM249.263 55.579h13.473v-20.211h-13.474v20.211zM249.263 89.263h13.473v-20.211h-13.474v20.211z" />
<glyph unicode="&#xe626;" glyph-name="appbarvectorgroup" d="M27.194 452.806h60.212v-12.042h240.85v-144.51h144.51v-240.85h12.042v-60.212h-60.212v12.042h-240.85v144.51h-144.51v240.85h-12.042v60.213zM292.127 404.637h-204.721v-12.042h-12.042v-204.721h108.381v108.381h108.382v108.382zM424.593 452.805h60.212v-60.212h-60.212v60.212zM27.194 55.406h60.212v-60.212h-60.212v60.212zM424.593 55.406h12.042v204.721h-108.381v-108.382h-108.382v-108.382h204.72v12.042zM219.873 260.127v-72.255h72.255v72.255h-72.255zM39.237 440.763v-36.127h36.127v36.127h-36.127zM436.637 440.763v-36.127h36.127v36.127h-36.127zM39.237 43.363v-36.127h36.127v36.127h-36.127zM436.637 43.363v-36.127h36.127v36.127h-36.127z" />
<glyph unicode="&#xe627;" glyph-name="appbarpagecopy" d="M122.507 397.448h124.365l-10.584 10.584h-145.533v-328.11h31.752v317.526zM326.254 397.448l134.948-134.948v-277.835h-338.694v52.921h-74.090v412.784h203.745l52.921-52.921h21.168zM164.844 355.112v-328.11h254.019v190.514h-137.594v137.595h-116.427zM323.606 341.881v-82.026h82.026l-82.026 82.026z" />
<glyph unicode="&#xe628;" glyph-name="appbarpagedelete" d="M312.449 314.318h87.495l-87.495 87.495v-87.495zM414.057 269.159h-146.768v146.768h-169.346v-203.216l-45.16-45.159v293.535h262.488l143.945-143.945v-330.226h-220.152l45.159 45.159h129.833v237.086zM223.688 193.856l37.921-37.919-63.198-63.198 63.198-63.2-37.921-37.92-63.198 63.198-63.198-63.198-37.92 37.919 63.2 63.2-63.2 63.198 37.92 37.92 63.198-63.198 63.198 63.198z" />
<glyph unicode="&#xe629;" glyph-name="object4" d="M449.039 235.607v141.726h-327.434v-141.732h327.434zM313.421 57.231v141.726h-191.815v-141.732h191.815zM88.617 35.236h-25.657v377.529h25.657z" />
<glyph unicode="&#xe62a;" glyph-name="object5" d="M390.395 235.607v141.726h-327.434v-141.732h327.434zM77.619 250.266v112.41h298.117v-112.41h-298.117zM390.395 57.231v141.726h-191.815v-141.732h191.815zM213.238 71.89v112.409h162.493v-112.409h-162.494zM423.383 412.764h25.656v-377.529h-25.656v377.529z" />
<glyph unicode="&#xe62b;" glyph-name="object6" d="M449.039 235.607v141.726h-327.434v-141.732h327.434zM136.263 250.266v112.41h298.117v-112.41h-298.117zM313.421 57.231v141.726h-191.815v-141.732h191.815zM136.263 71.89v112.409h162.494v-112.409h-162.494zM88.617 35.236h-25.657v377.529h25.657v-377.529z" />
<glyph unicode="&#xe62c;" glyph-name="object7" d="M419.717 243.543v141.732h-327.434v-141.732h327.434zM106.942 258.207v112.409h298.117v-112.409h-298.117zM351.908 65.173v141.726h-191.815v-141.732h191.815zM174.75 79.831v112.409h162.494v-112.409h-162.494zM268.825 400.64h-25.656v56.208h25.656v-56.208zM268.825-8.848h-25.656v56.207h25.656v-56.207z" />
<glyph unicode="&#xe62d;" glyph-name="object8" d="M236.457 387.722h-141.732v-327.44h141.732v327.44zM221.793 74.942h-112.409v298.117h112.409v-298.117zM414.827 319.908h-141.726v-191.821h141.732v191.821zM400.169 142.75h-112.409v162.499h112.409v-162.499zM79.36 236.831v-25.662h-56.208v25.661h56.208zM488.848 236.831v-25.662h-56.207v25.661h56.207z" />
<glyph unicode="&#xe62e;" glyph-name="object9" d="M134.262 344.197v-240.394h244.808v240.394h-244.808zM149.913 119.46v209.080h213.504v-209.085h-213.504zM203.187 152.53h106.962v142.94h-106.962v-142.94zM294.492 279.818v-111.636h-75.653v111.637h75.653zM124.103 236.826v-25.657h-56.208v25.656h56.208zM444.103 236.826v-25.657h-56.207v25.656h56.207zM269.491 355.897h-25.656v56.208h25.656v-56.208zM269.491 35.897h-25.656v56.207h25.656v-56.207z" />
<glyph unicode="&#xe62f;" glyph-name="object10" d="M244.393 417.039h-141.726v-327.434h141.732v327.434zM229.734 104.264h-112.409v298.117h112.409v-298.117zM422.769 281.421h-141.726v-191.815h141.732v191.815zM408.11 104.264h-112.409v162.499h112.409v-162.499zM444.764 56.617v-25.656h-377.529v25.656h377.529z" />
<glyph unicode="&#xe630;" glyph-name="object11" d="M244.393 358.395h-141.726v-327.434h141.732v327.434zM229.734 45.619h-112.409v298.117h112.409v-298.117zM422.769 358.395h-141.726v-191.815h141.732v191.815zM408.11 181.238h-112.409v162.498h112.409v-162.498zM67.236 391.383v25.656h377.529v-25.656h-377.529z" />
<glyph unicode="&#xe631;" glyph-name="object3" d="M449.039 235.607v141.726h-327.434v-141.732h327.434zM313.421 57.231v141.726h-191.815v-141.732h191.815zM136.263 71.89v112.409h162.494v-112.409zM88.617 35.236h-25.657v377.529h25.657z" />
<glyph unicode="&#xe632;" glyph-name="appbarlayerperspectiveup" d="M255.976 457.017l168.267-64.718v-38.83l-168.267-64.718-168.266 64.717v38.831l168.266 64.718zM243.054 71.892v139.162l-64.727-51.781v38.837l77.672 71.2 77.672-71.2v-38.837l-64.726 51.781v-139.163h-25.892zM424.243 94.555v-38.83l-168.267-64.718-168.266 64.718v38.831l142.399 54.769v-37.517l-90.618-30.207 116.508-48.545 116.509 48.545-90.618 30.205v37.5l142.353-54.75z" />
<glyph unicode="&#xe633;" glyph-name="appbarlayerperspectiveup2" d="M255.976-9.017l168.267 64.718v38.831l-168.267 64.717-168.266-64.717v-38.831l168.266-64.718zM243.054 376.108v-139.162l-64.727 51.781v-38.837l77.672-71.2 77.672 71.2v38.837l-64.726-51.781v139.163h-25.892zM424.243 353.445v38.83l-168.267 64.718-168.266-64.718v-38.83l142.399-54.769v37.517l-90.618 30.207 116.508 48.545 116.509-48.545-90.618-30.206v-37.5l142.353 54.75z" />
<glyph unicode="&#xe634;" glyph-name="area_alignment" horiz-adv-x="633" d="M381.291 238.724v114.885h-265.438v-114.885h265.438zM127.881 341.581h241.383v-91.244h-241.382v91.244zM271.384 94.392v114.885h-155.53v-114.885h155.53zM127.881 197.249h131.475v-91.244h-131.475v91.244zM566.683 418.308h-501.014v-389.033h501.429v389.033zM88.895 52.502v342.58h454.563v-342.58h-454.563z" />
<glyph unicode="&#xe635;" glyph-name="-1" horiz-adv-x="220" d="M0 480h73.143v-73.143h-73.143v73.143zM146.286 480h73.143v-73.143h-73.143v73.143zM0 333.714h73.143v-73.143h-73.143v73.143zM146.286 333.714h73.143v-73.143h-73.143v73.143zM0 41.143h73.143v-73.143h-73.143v73.143zM146.286 41.143h73.143v-73.143h-73.143v73.143zM0 187.428h73.143v-73.143h-73.143v73.143zM146.286 187.428h73.143v-73.143h-73.143v73.143z" />
<glyph unicode="&#xe636;" glyph-name="appbarsocialfacebookvariant" d="M484.809 376.531c0 40.077-36.202 76.273-76.269 76.273h-305.066c-40.097 0-76.28-36.197-76.28-76.273v-305.066c0-40.077 36.183-76.274 76.28-76.274l152.526 0v168.596h-60.213l0 72.255h60.213v38.008c0 51.245 38.49 97.4 85.829 97.4h61.626v-76.27h-61.626c-6.761 0-13.574-7.728-13.574-20.002v-39.136l78.276 0-6.022-72.257h-72.255v-168.596l80.284-0c40.067 0 76.269 36.197 76.269 76.274v305.066z" />
<glyph unicode="&#xe637;" glyph-name="appbarsociallinkedinvariant" d="M272.836 246.424l0.447 0.651v-0.651zM415.173 69.76h-69.12v110.534c0 27.788-10.017 46.731-35.012 46.731-19.118 0-30.471-12.783-35.456-25.127-1.846-4.414-2.305-10.577-2.305-16.745v-115.394h-69.11c0 0 0.905 187.224 0 206.602h69.11v-29.288c9.173 14.074 25.57 34.154 62.287 34.154 45.491 0 79.606-29.517 79.606-93.007zM131.371 304.587h-0.467c-23.179 0-38.214 15.858-38.214 35.713 0 20.253 15.472 35.674 39.119 35.674 23.654 0 38.191-15.421 38.649-35.674 0-19.854-14.994-35.713-39.086-35.713zM165.933 69.76h-69.141v206.602h69.141zM451.014 452.809h-390.003c-18.672 0-33.817-14.675-33.817-32.785v-392.027c0-18.106 15.146-32.8 33.817-32.8h390.003c18.68 0 33.793 14.694 33.793 32.8v392.027c0 18.111-15.111 32.785-33.793 32.785z" />
<glyph unicode="&#xe638;" glyph-name="appbarpagecornertext" d="M384 352h-326.055c-6.907-10.666-12.977-21.925-18.114-33.684h310.486v-310.486c11.759 5.137 23.019 11.207 33.684 18.115v326.055zM309.894 277.894h-283.497c-2.561-10.954-4.359-22.202-5.334-33.684h288.83v33.684zM309.894 210.526h-289.305c0.646-11.466 2.111-22.714 4.338-33.684h284.967v33.684zM309.894 143.158h-275.461c4.266-11.688 9.43-22.945 15.409-33.684h260.051v33.684zM309.894 75.789h-237.291c9.963-12.313 21.139-23.601 33.349-33.684h203.942v33.684z" />
<glyph unicode="&#xe639;" glyph-name="appbarpaper" d="M141.474 358.737h229.053v-269.473h-229.053v269.474zM161.684 338.526v-40.421h40.421v40.421h-40.421zM161.684 271.158h40.421v20.21h-40.421v-20.21zM161.684 109.474h40.421v20.211h-40.421v-20.211zM202.106 156.632h-40.421v-20.211h40.421v20.211zM202.106 183.579h-40.421v-20.211h40.421v20.211zM202.106 210.526h-40.421v-20.211h40.421v20.211zM202.106 237.474h-40.421v-20.211h40.421v20.21zM202.106 264.421h-40.421v-20.21h40.421v20.21zM350.316 109.474v20.211h-141.474v-20.211h141.474zM350.316 156.632h-141.474v-20.211h141.474v20.211zM350.316 183.579h-141.474v-20.211h141.474v20.211zM350.316 210.526h-141.474v-20.211h141.474v20.211zM350.316 237.474h-141.474v-20.211h141.474v20.21zM350.316 264.421h-141.474v-20.21h141.474v20.21zM350.316 338.526h-141.474v-40.421h141.474v40.421zM208.842 271.158h141.474v20.21h-141.474v-20.21z" />
<glyph unicode="&#xe63a;" glyph-name="appbarinterfacelist" d="M117.334 362.666h277.333v-256h-277.333v256zM138.667 341.333v-117.332h234.667v117.332h-234.667zM138.667 128h234.667v21.334h-234.667v-21.334zM373.333 181.334h-234.667v-21.334h234.667v21.334zM373.333 213.334h-234.667v-21.334h234.667v21.334zM181.902 245.333h-14.934v73.671h14.934v-73.671zM202.311 303.076c-2.479 0-4.509 0.774-6.090 2.325s-2.373 3.456-2.373 5.716c0 2.313 0.791 4.205 2.373 5.678s3.611 2.209 6.090 2.209c2.51 0 4.548-0.736 6.113-2.209s2.349-3.365 2.349-5.678c0-2.354-0.784-4.282-2.349-5.786s-3.603-2.255-6.113-2.255zM209.778 245.333h-14.934v49.777h14.934v-49.777zM218.738 247.029v13.238l7.692-3.749 7.241-1.229 6.565 0.964c1.596 0.642 2.395 1.618 2.395 2.925l-1.089 2.411-2.792 1.688-3.733 1.299-3.912 1.307-5.32 2.388-3.858 2.971-2.372 3.904-0.816 5.25c0 2.759 0.62 5.136 1.858 7.132 1.239 1.996 2.888 3.627 4.947 4.892l7.077 2.793 8.299 0.894 6.828-0.514 6.829-1.493v-11.932l-6.471 2.24-6.782 0.747-2.94-0.226-2.442-0.661-1.665-1.12-0.607-1.555 0.903-2.317 2.357-1.665 3.227-1.252 3.531-1.128 5.709-2.31 4.379-2.94 2.807-3.958 0.98-5.398c0-2.924-0.651-5.421-1.952-7.49s-3.030-3.754-5.188-5.055l-7.459-2.846-8.766-0.894c-5.57 0-10.723 0.897-15.463 2.691zM295.396 246.328c-2.219-1.327-5.558-1.99-10.017-1.99-10.578 0-15.866 5.647-15.866 16.94v22.882h-7.965v10.952h7.965v10.609l14.933 4.324v-14.933h10.952v-10.952h-10.952v-20.098c0-5.185 2.017-7.778 6.051-7.778l4.901 0.995v-10.951z" />
<glyph unicode="&#xe63b;" glyph-name="appbarpagetext" d="M52.785 461.086h273.777l132.656-132.656v-341.517h-406.433v474.171zM97.943 415.927v-383.853h316.115v248.375h-135.478v135.478h-180.637zM323.738 401.815v-76.205h76.205l-76.205 76.205zM120.522 393.346h135.478v-56.449h-135.478v56.449zM120.522 314.318h135.478v-33.869h-135.478v33.869zM120.522 257.869h270.954v-33.869h-270.954v33.869zM120.522 201.421h270.954v-33.869h-270.954v33.869zM120.522 144.971h270.954v-33.869h-270.954v33.869zM120.522 88.522h270.954v-33.869h-270.954v33.869z" />
<glyph unicode="&#xe63c;" glyph-name="enlarge" d="M512 480v-208l-80 80-96-96-48 48 96 96-80 80zM224 144l-96-96 80-80h-208v208l80-80 96 96z" />
<glyph unicode="&#xe63d;" glyph-name="enlarge2" d="M512 480h-208l80-80-96-96 48-48 96 96 80-80zM512-32v208l-80-80-96 96-48-48 96-96-80-80zM0-32h208l-80 80 96 96-48 48-96-96-80 80zM0 480v-208l80 80 96-96 48 48-96 96 80 80z" />
<glyph unicode="&#xe63e;" glyph-name="appbarlistcheck" d="M205.333 296h175.999c8.837 0 16-4.497 16-13.334s-7.163-13.333-16-13.333h-176c-8.837 0-16 4.497-16 13.334s7.163 13.333 16 13.333zM205.333 232l205.333-0c8.837 0 16-4.497 16-13.334s-9.772-12.779-18.608-12.779l-205.332 0c-8.837 0-13.392 3.942-13.392 12.779s7.164 13.334 16 13.334zM205.333 168l151.999-0c8.837 0 16-4.497 16-13.333s-7.163-13.334-16-13.334h-151.999c-8.837 0-16 4.497-16 13.334s7.163 13.334 16 13.334zM111.914 167.742l18.236-16.086 32.516 40.344 14.537-16.086-40.602-47.914h-11.269l-25.807 25.353v14.389h12.387zM113.376 231.742l18.237-16.086 32.516 40.344 14.537-16.086-40.601-47.914h-11.269l-25.807 25.353v14.388h12.387zM113.376 295.742l18.237-16.085 32.516 40.344 14.537-16.086-40.601-47.914h-11.269l-25.807 25.353v14.388h12.387z" />
<glyph unicode="&#xe63f;" glyph-name="fullscreen-exit-alt" d="M448 160h-128v-128l41.376 41.376 105.376-105.376 45.248 45.248-105.376 105.376zM406.624 329.376l105.376 105.376-45.248 45.248-105.376-105.376-41.376 41.376v-128h128zM45.248 480l-45.248-45.248 105.376-105.376-41.376-41.376h128v128l-41.376-41.376zM105.376 118.624l-105.376-105.376 45.248-45.248 105.376 105.376 41.376-41.376v128h-128z" />
<glyph unicode="&#xe900;" glyph-name="appbaropacity" d="M-16.003-48.052v90.668h90.668v90.668h-90.668v90.668h90.668v90.668h-90.668v90.668h90.668v90.668h90.668v-90.668h90.668v90.668h90.668v-90.668h90.668v90.668h90.668v-90.668h-90.668v-90.668h90.668v-90.668h-90.668v-90.668h90.668v-90.668h-90.668v-90.668h-90.668v90.668h-90.668v-90.668h-90.668v90.668h-90.668v-90.668h-90.668zM256 405.286v-90.668h90.668v90.668h-90.668zM74.664 405.286v-90.668h90.668v90.668h-90.668zM346.667 314.618v-90.668h90.668v90.668h-90.668zM346.667 223.95h-90.668v-90.668h90.668v90.668zM346.667 133.284v-90.668h90.668v90.668h-90.668zM165.332 314.618v-90.668h90.668v90.668h-90.668zM165.332 223.95h-90.668v-90.668l90.668-0.001v90.668zM165.332 133.283v-90.668h90.668v90.668l-90.668-0.001z" />
<glyph unicode="&#xe901;" glyph-name="border_style" d="M405 277.333v43h43v-43h-43zM64 405.333h384v-43h-341v-341h-43v384zM405 192.333v42h43v-42h-43zM405 106.333v43h43v-43h-43zM235 21.333v43h42v-43h-42zM149 21.333v43h43v-43h-43zM405 21.333v43h43v-43h-43zM320 21.333v43h43v-43h-43z" />
<glyph unicode="&#xe902;" glyph-name="format-vertical-align-bottom" d="M341.334 202.666h-64v213.334h-42.666v-213.334h-64l85.334-85.334 85.334 85.334zM85.334 74.666v-42.666h341.334v42.666h-341.334z" />
<glyph unicode="&#xe903;" glyph-name="format-vertical-align-center" d="M170.667 74.666h64v-85.334h42.667v85.334h64l-85.334 85.334-85.334-85.334zM341.334 373.334h-64v85.334h-42.666v-85.334h-64l85.334-85.334 85.334 85.334zM85.334 245.333v-42.667h341.334v42.666h-341.334z" />
<glyph unicode="&#xe904;" glyph-name="format-vertical-align-top" d="M170.667 245.333h64v-213.333h42.667v213.333h64l-85.334 85.333-85.334-85.334zM85.334 416v-42.666h341.334v42.666h-341.334z" />
<glyph unicode="&#xe905;" glyph-name="appbarvectorline" d="M64 6.399h-63.999v64h38.4l409.601 332.8v38.4h63.999v-63.999h-38.4l-409.601-332.801v-38.4zM460.8 428.8v-38.4h38.4v38.4h-38.4zM12.8 57.6v-38.4h38.4v38.4h-38.4z" />
<glyph unicode="&#xf040;" glyph-name="uniF040" d="M103.715 41.143l26 26-67.143 67.143-26-26v-30.572h36.572v-36.572h30.572zM253.143 306.286q0 6.286-6.286 6.286-2.857 0-4.857-2l-154.857-154.857q-2-2-2-4.857 0-6.286 6.285-6.286 2.857 0 4.857 2l154.857 154.857q2 2 2 4.857zM237.714 361.143l118.857-118.857-237.714-237.714h-118.857v118.857zM432.857 333.714q0-15.143-10.572-25.714l-47.428-47.428-118.857 118.857 47.428 47.143q10.286 10.857 25.714 10.857 15.143 0 26-10.857l67.143-66.857q10.572-11.143 10.572-26z" />
<glyph unicode="&#xf042;" glyph-name="uniF042" d="M219.429 68.572v310.857q-42.285 0-78-20.857t-56.572-56.571-20.857-78 20.857-78 56.572-56.572 78-20.857zM438.857 224q0-59.714-29.428-110.143t-79.857-79.857-110.143-29.428-110.143 29.428-79.857 79.857-29.428 110.143 29.428 110.143 79.857 79.857 110.143 29.428 110.143-29.428 79.857-79.857 29.428-110.143z" />
<glyph unicode="&#xf125;" glyph-name="uniF125" horiz-adv-x="476" d="M159.143 114.286h170v170zM146.286 127.143l170 170h-170v-170zM475.428 105.143v-54.857q0-4-2.572-6.572t-6.572-2.572h-64v-64q0-4-2.572-6.572t-6.572-2.572h-54.857q-4 0-6.572 2.572t-2.572 6.572v64h-246.857q-4 0-6.572 2.572t-2.572 6.572v246.857h-64q-4 0-6.572 2.572t-2.571 6.572v54.857q0 4 2.571 6.572t6.572 2.572h64v64q0 4 2.572 6.572t6.572 2.572h54.857q4 0 6.572-2.572t2.571-6.572v-64h243.143l70.286 70.572q2.857 2.572 6.572 2.572t6.572-2.572q2.572-2.857 2.572-6.572t-2.572-6.572l-70.572-70.285v-243.143h64q4 0 6.572-2.572t2.572-6.572z" />
<glyph unicode="&#xf1da;" glyph-name="uniF1DA" d="M438.857 224q0-44.572-17.428-85.143t-46.857-70-70-46.857-85.143-17.428q-49.143 0-93.428 20.714t-75.428 58.428q-2 2.857-1.857 6.428t2.428 5.857l39.143 39.428q2.857 2.572 7.143 2.572 4.572-0.572 6.572-3.428 20.857-27.143 51.143-42t64.286-14.857q29.714 0 56.714 11.572t46.714 31.286 31.286 46.714 11.572 56.714-11.572 56.714-31.286 46.714-46.714 31.286-56.714 11.572q-28 0-53.714-10.143t-45.715-29l39.143-39.428q8.857-8.572 4-19.714-4.857-11.428-16.857-11.428h-128q-7.428 0-12.857 5.428t-5.428 12.857v128q0 12 11.428 16.857 11.143 4.857 19.715-4l37.143-36.857q30.572 28.857 69.857 44.714t81.286 15.857q44.572 0 85.143-17.428t70-46.857 46.857-70 17.428-85.143zM256 306.286v-128q0-4-2.571-6.572t-6.571-2.572h-91.428q-4 0-6.572 2.572t-2.571 6.572v18.286q0 4 2.571 6.572t6.572 2.572h64v100.572q0 4 2.571 6.572t6.571 2.572h18.286q4 0 6.572-2.572t2.572-6.572z" />
</font>
</defs>
</svg>
